14b6 AVCHD / MTS Audio only stereo but no 5.1 ?

  • Author
  • Message
Offline

Peter Cordes

  • Posts: 138
  • Joined: Fri Jun 27, 2014 8:04 am
  • Location: Germany

14b6 AVCHD / MTS Audio only stereo but no 5.1 ?

PostSun Aug 13, 2017 10:37 am

Hello,

when trying Resolve 14b6 with AVCHD / MTS Files with AC3 5.1 (surround) audio, it recognises the audio tracks, but there ist no playback of the audio tracks. Also the waveform (on edit page, audio track) is a straight line but no audio waveform visible.

Do I need to finetune the settings in any way for being able to use 5.1 audio in AVCHD / MTS files on resolve 14b6 ?

Or does it only work with stereo AC3 audio in MTS files?

Thanks for your answer.

Peter
Offline

Jean Claude

  • Posts: 778
  • Joined: Sun Jun 28, 2015 4:41 pm

Re: 14b6 AVCHD / MTS Audio only stereo but no 5.1 ?

PostSun Aug 13, 2017 4:37 pm

Hello,

(Test done with v14.0B.051)

I just did a test with an AVCHD / Dolby 5.1 DIGITAL PLUS and DR read the video but not the audio (eac3).

I converted to MP4 + Dolby 5.1 (ac3) and everything works well (Just convert Edit Tab : Stereo track in 5.1 + bus stereo to the 5.1) and everything works fine in Edit tab and Fairlight.

I think it's more a codec / container issue than anything else. (MP4+AC3 : OK, M2TS/codec ? : BAD) :)

Code: Select all
General
Complete name                            : J:\dolby\Project_3\MP4\Movie_00_Safari_Dolby_Digital_Plus).mp4
Format                                   : MPEG-4
Format profile                           : Base Media / Version 2
Codec ID                                 : mp42 (mp42/isom/avc1)
File size                                : 145 MiB
Duration                                 : 1 min 34 s
Overall bit rate mode                    : Variable
Overall bit rate                         : 12.9 Mb/s
Encoded date                             : UTC 2017-08-13 17:16:48
Tagged date                              : UTC 2017-08-13 17:16:48


Video
ID                                       : 2
Format                                   : AVC
Format/Info                              : Advanced Video Codec
Format profile                           : High@L4.1
Format settings, CABAC                   : Yes
Format settings, RefFrames               : 4 frames
Codec ID                                 : avc1
Codec ID/Info                            : Advanced Video Coding
Duration                                 : 1 min 34 s
Bit rate mode                            : Variable
Bit rate                                 : 12.4 Mb/s
Maximum bit rate                         : 49.6 Mb/s
Width                                    : 1 920 pixels
Height                                   : 1 080 pixels
Display aspect ratio                     : 16:9
Frame rate mode                          : Constant
Frame rate                               : 29.970 (30000/1001) FPS
Standard                                 : Component
Color space                              : YUV
Chroma subsampling                       : 4:2:0
Bit depth                                : 8 bits
Scan type                                : MBAFF
Scan type, store method                  : Interleaved fields
Scan order                               : Top Field First
Bits/(Pixel*Frame)                       : 0.200
Stream size                              : 140 MiB (97%)
Writing library                          : x264 core 148
Encoding settings                        : cabac=1 / ref=4 / deblock=1:0:0 / analyse=0x3:0x113 / me=hex / subme=7 / psy=1 / psy_rd=1.00:0.00 / mixed_ref=1 / me_range=16 / chroma_me=1 / trellis=1 / 8x8dct=1 / cqm=1 / deadzone=21,11 / fast_pskip=1 / chroma_qp_offset=-2 / threads=18 / lookahead_threads=3 / sliced_threads=0 / slices=1 / nr=0 / decimate=1 / interlaced=tff / minigop=0 / stitchable=1 / constrained_intra=0 / bframes=3 / b_pyramid=0 / b_adapt=1 / b_bias=0 / direct=1 / weightb=1 / open_gop=0 / weightp=0 / keyint=250 / keyint_min=25 / scenecut=40 / intra_refresh=0 / rc_lookahead=40 / rc=abr / mbtree=1 / bitrate=12400 / ratetol=1.0 / qcomp=0.60 / qpmin=3 / qpmax=69 / qpstep=4 / vbv_maxrate=49600 / vbv_bufsize=49600 / nal_hrd=vbr / filler=0 / ip_ratio=1.40 / aq=1:1.00
Encoded date                             : UTC 2017-08-13 17:16:48
Tagged date                              : UTC 2017-08-13 17:16:48
Color range                              : Limited
Color primaries                          : BT.709
Transfer characteristics                 : BT.709
Matrix coefficients                      : BT.709

Audio
ID                                       : 1
Format                                   : AC-3
Format/Info                              : Audio Coding 3
Format settings, Endianness              : Big
Codec ID                                 : ac-3
Duration                                 : 1 min 34 s
Bit rate mode                            : Constant
Bit rate                                 : 448 kb/s
Channel(s)                               : 6 channels
Channel positions                        : Front: L C R, Side: L R, LFE
Sampling rate                            : 48.0 kHz
Frame rate                               : 31.250 FPS (1536 SPF)
Bit depth                                : 16 bits
Compression mode                         : Lossy
Stream size                              : 5.03 MiB (3%)
Service kind                             : Complete Main
Default                                  : Yes
Alternate group                          : 1
Encoded date                             : UTC 2017-08-13 17:16:48
Tagged date                              : UTC 2017-08-13 17:16:48
Windows 10 PRO X64 | DaVinci Resolve Studio 14.B7

Return to DaVinci Resolve 14 Beta Feedback

Who is online

Users browsing this forum: No registered users and 3 guests