Page 1 of 1

No Video when opening H.265 files with GeForce GTX 1060

PostPosted: Thu Dec 07, 2017 2:57 pm
by Michael Stevens
I purchased a GoPro Hero 6 and they now use H.265 for 1080p @ 240fps and 4k @ 60fps. I thought it was just my outdated 2 GB GeForce 640 graphics card so I purchased a 6GB GeForce GTX 1060 as I found online that it supported the new H.265 codec but am still unable to view the video, only the audio. I'm going to reach out to the GeForce community also but wanted to check here to see if anyone is using Davinci with H.265 successfully.

Re: No Video when opening H.265 files with GeForce GTX 1060

PostPosted: Thu Dec 07, 2017 6:58 pm
by Jean Claude
Hi,

Here no issue :
(Maybe?)

Code: Select all
General
Complete name                            : K:\_Shots_Shots\HEVC\TEST GOPRO HERO6 4K-50FPS-PAL.MP4
Format                                   : MPEG-4
Format profile                           : Base Media / Version 1
Codec ID                                 : mp41 (mp41)
File size                                : 98.9 MiB
Duration                                 : 13 s 291 ms
Overall bit rate                         : 62.4 Mb/s
Encoded date                             : UTC 2017-10-30 21:15:44
Tagged date                              : UTC 2017-10-30 21:15:44

Video
ID                                       : 1
Format                                   : HEVC
Format/Info                              : High Efficiency Video Coding
Format profile                           : Main@L5.1@Main
Codec ID                                 : hvc1
Codec ID/Info                            : High Efficiency Video Coding
Duration                                 : 13 s 280 ms
Bit rate                                 : 62.2 Mb/s
Width                                    : 3 840 pixels
Height                                   : 2 160 pixels
Display aspect ratio                     : 16:9
Frame rate mode                          : Constant
Frame rate                               : 50.000 FPS
Color space                              : YUV
Chroma subsampling                       : 4:2:0
Bit depth                                : 8 bits
Bits/(Pixel*Frame)                       : 0.150
Stream size                              : 98.5 MiB (100%)
Title                                    : GoPro H.265
Language                                 : English
Encoded date                             : UTC 2017-10-30 21:15:44
Tagged date                              : UTC 2017-10-30 21:15:44
Color range                              : Full
Color primaries                          : BT.709
Transfer characteristics                 : BT.709
Matrix coefficients                      : BT.709

Audio
ID                                       : 2
Format                                   : AAC
Format/Info                              : Advanced Audio Codec
Format profile                           : LC
Codec ID                                 : mp4a-40-2
Duration                                 : 13 s 291 ms
Bit rate mode                            : Constant
Bit rate                                 : 192 kb/s
Nominal bit rate                         : 48.0 kb/s
Channel(s)                               : 2 channels
Channel positions                        : Front: L R
Sampling rate                            : 48.0 kHz
Frame rate                               : 46.875 FPS (1024 SPF)
Compression mode                         : Lossy
Stream size                              : 306 KiB (0%)
Title                                    : GoPro AAC 
Language                                 : English
Encoded date                             : UTC 2017-10-30 21:15:44
Tagged date                              : UTC 2017-10-30 21:15:44

Other #1
ID                                       : 3
Type                                     : Time code
Format                                   : QuickTime TC
Duration                                 : 13 s 280 ms
Time code of first frame                 : 21:15:44:11
Time code, striped                       : Yes
Title                                    : GoPro TCD 
Language                                 : English
Encoded date                             : UTC 2017-10-30 21:15:44
Tagged date                              : UTC 2017-10-30 21:15:44
Bit rate mode                            : CBR

Other #2
Type                                     : meta
Duration                                 : 13 s 0 ms
Bit rate mode                            : VBR

Other #3
Type                                     : meta
mdhd_Duration                            : 13280
Bit rate mode                            : VBR


gopro_HERO6_HEVC_UHD00180093.jpg
gopro_HERO6_HEVC_UHD00180093.jpg (132.74 KiB) Viewed 237 times

(UHD to 20%)

Re: No Video when opening H.265 files with GeForce GTX 1060

PostPosted: Thu Dec 07, 2017 7:55 pm
by Michael Stevens
Hi Jean, I'm sorry but I have no idea what you mean. Do you have the same GeForce GTX 1060 card?

Re: No Video when opening H.265 files with GeForce GTX 1060

PostPosted: Thu Dec 07, 2017 9:00 pm
by Norman Black
I believe only Studio supports HEVC/H.265. Not the free version. Video card not really a consequence.

Re: No Video when opening H.265 files with GeForce GTX 1060

PostPosted: Thu Dec 07, 2017 10:03 pm
by Dan Sherman
Look at the last post in response to the almost exact same question you asked two weeks a go....

viewtopic.php?f=21&t=67021&p=376552&hilit=h.265#p376552

Rohit Gupta wrote:
Unfortunately the free version does not support h265 on Windows.

Re: No Video when opening H.265 files with GeForce GTX 1060

PostPosted: Fri Dec 08, 2017 3:14 am
by Michael Stevens
Thanks, I just replied in that thread. Somehow I missed the notification when they replied. I didn't realize Resolve didn't support the format. Looks like it might be time for me to add Premiere Pro to my Creative Cloud account. Thank you for your help.