MP3 support on Linux - Revolve Studio

Get answers to your questions about color grading, editing and finishing with DaVinci Resolve.
  • Author
  • Message
Offline

marcokal

  • Posts: 12
  • Joined: Fri Jul 27, 2018 5:47 pm
  • Real Name: marco kleine-albers

MP3 support on Linux - Revolve Studio

PostFri Aug 10, 2018 11:38 am

I am not able to play or import mp3 files into my project. Also mp4 recordings from a LUMIX G81 have no sound. FLAC, m4a or wav did work.
Should that work in the studio version? Can anyone confirm that?
Because if it should it must be the fault of my system and i could dig deeper. Thank you.
Offline
User avatar

MikeRochefort

  • Posts: 67
  • Joined: Thu Feb 12, 2015 2:48 am
  • Location: New England

Re: MP3 support on Linux - Revolve Studio

PostFri Aug 10, 2018 11:52 am

Have you reviewed the supported codecs document? Everything listed there works in Studio, so if it’s listed and doesn’t work for you then it’s a Studio only feature. If you aren’t, I suggest getting comfortable with ffmpeg to transcode material, the Linux side of things is a bit more restricted than others.

https://www.blackmagicdesign.com/manual ... c_List.pdf

Cheers,
Mike
https://michaelrochefort.com/
3D Lookdev, Compositing, and Sysadmin
Fusion Studio 9.0.2
DaVinci Resolve Studio 15b7
CentOS 7.5.1804 | Intel i7-6850K | 32GB memory | 3x GTX 1070 | 390.48
Offline

marcokal

  • Posts: 12
  • Joined: Fri Jul 27, 2018 5:47 pm
  • Real Name: marco kleine-albers

Re: MP3 support on Linux - Revolve Studio

PostFri Aug 10, 2018 3:16 pm

I have the Studio Version.
But you are right, it seems "MPEG 1 and 2 mp3 Audio Layer 3" does not work in Linux. Funny thing. Never have found a program not able to read mp3 or AAC audio.

In detail a LUMIX G81 produces this audio that:

Code: Select all
General
Complete name                            : wiegen.MP4
Format                                   : MPEG-4
Format profile                           : Base Media / Version 2
Codec ID                                 : mp42 (mp42/avc1)
File size                                : 80.6 MiB
Duration                                 : 7 s 200 ms
Overall bit rate mode                    : Variable
Overall bit rate                         : 93.9 Mb/s
Encoded date                             : UTC 2018-07-12 19:16:41
Tagged date                              : UTC 2018-07-12 19:16:41

Video
ID                                       : 1
Format                                   : AVC
Format/Info                              : Advanced Video Codec
Format profile                           : High@L5.1
Format settings                          : CABAC / 2 Ref Frames
Format settings, CABAC                   : Yes
Format settings, ReFrames                : 2 frames
Codec ID                                 : avc1
Codec ID/Info                            : Advanced Video Coding
Duration                                 : 7 s 200 ms
Bit rate mode                            : Variable
Bit rate                                 : 93.5 Mb/s
Maximum bit rate                         : 106 Mb/s
Width                                    : 3 840 pixels
Height                                   : 2 160 pixels
Display aspect ratio                     : 16:9
Frame rate mode                          : Constant
Frame rate                               : 25.000 FPS
Color space                              : YUV
Chroma subsampling                       : 4:2:0
Bit depth                                : 8 bits
Scan type                                : Progressive
Bits/(Pixel*Frame)                       : 0.451
Stream size                              : 80.2 MiB (100%)
Encoded date                             : UTC 2018-07-12 19:16:41
Tagged date                              : UTC 2018-07-12 19:16:41
Color range                              : Limited
Color primaries                          : BT.709
Transfer characteristics                 : BT.709
Matrix coefficients                      : BT.709

Audio
ID                                       : 2
Format                                   : AAC
Format/Info                              : Advanced Audio Codec
Format profile                           : LC
Codec ID                                 : mp4a-40-2
Duration                                 : 7 s 200 ms
Source duration                          : 7 s 232 ms
Bit rate mode                            : Constant
Bit rate                                 : 128 kb/s
Channel(s)                               : 2 channels
Channel positions                        : Front: L R
Sampling rate                            : 48.0 kHz
Frame rate                               : 46.875 FPS (1024 SPF)
Compression mode                         : Lossy
Stream size                              : 110 KiB (0%)
Source stream size                       : 110 KiB (0%)
Encoded date                             : UTC 2018-07-12 19:16:41
Tagged date                              : UTC 2018-07-12 19:16:41

Return to DaVinci Resolve

Who is online

Users browsing this forum: bennjoell, Frederic Granier, Ian Henderson, Pekka Hietanen and 39 guests